K-Concert

ก้าวเข้าสู่เดือนตุลาคม หลายๆสิ่งที่ผ่านเข้ามา ในเวป k-concert
เต็มไปด้วยความทรงจำมากมาย ขอบคุณสมาชิกทุกท่าน
ที่คอยให้กำลังใจ อยู่ตลอดเวลา ....
ทีมงาน ขอขอบคุณ ในทุกๆความหวังดี ทุกๆกำลังใจ
เราสัญญาว่า จะ พัฒนาเวป k-concert บ้านเล็กๆหลังนี้ให้มีความสุขมากที่สุดนะค่ะ


็Happy Today 2011 คร่า

สุดยอดเวปไซด์และศูนย์รวมคอนเสิร์ตระดับโลก


    [Mini-HD] Stealth-ฝูงบินมหากาฬถล่มโลก(2005)BluRay720p[พากย์ไทย/อังกฤษ][ซับไทย]

    Share

    admin
    ผู้บัญคับบัญชาสูงสุด (ดูแลเว็บ)
    ผู้บัญคับบัญชาสูงสุด (ดูแลเว็บ)

    จำนวนข้อความ : 1009
    พลัีงชีวิต : 41411
    คะแนนความดี [Lv] : 6
    วันที่สมัคร : 02/04/2010
    อายุ : 27
    ที่อยู่ : ฺBanGkok Unversity

    [Mini-HD] Stealth-ฝูงบินมหากาฬถล่มโลก(2005)BluRay720p[พากย์ไทย/อังกฤษ][ซับไทย]

    ตั้งหัวข้อ  admin on 7th January 2011, 02:23



    General
    Stealth (2005) BluRay720p By princo13.mkv
    Format : Matroska
    File size : 2.95 GiB
    Duration : 2h 0mn
    Overall bit rate : 3 498 Kbps

    Video
    ID : 1
    Format : AVC
    Duration : 2h 0mn
    Bit rate : 2 532 Kbps
    Width : 1 280 pixels
    Height : 544 pixels
    Display aspect ratio : 2.35:1
    Frame rate : 23.976 fps
    Stream size : 2.14 GiB (72%)

    Audio #1
    ID : 2
    Format : AC-3
    Codec ID : A_AC3
    Duration : 2h 0mn
    Bit rate : 448 Kbps
    Stream size : 387 MiB (13%)
    Title : Eng AC-3

    Audio #2
    ID : 3
    Format : AC-3
    Codec ID : A_AC3
    Duration : 2h 0mn
    Bit rate : 448 Kbps
    Stream size : 387 MiB (13%)
    Title : thai By princo13
    Language : Thai

    Text #1
    ID : 4
    Format : VobSub
    Codec ID : S_VOBSUB
    Codec ID/Info : The same subtitle format used on DVDs
    Title : thai By princo13
    Language : Thai

    Text #2
    ID : 5
    Format : UTF-8
    Codec ID : S_TEXT/UTF8
    Codec ID/Info : UTF-8 Plain Text
    Title : Eng


    เรื่องราวชีวิตของนักบินแห่งกองทัพอากาศอเมริกัน เบน แกนน่อน (จอช ลูคัส), คาร่า เวด (เจสสิก้า บีล) และ เฮนรี่ เพอร์เซลล์ (เจมี่ ฟ็อกซ์) ทั้งหมดเป็นส่วนหนึ่งในหน่วยลับที่รวบรวมเอานักบินหัวกะทิเข้าไว้ด้วยกัน สำหรับปฏิบัติการทดสอบเครื่องบินลักลอบโจมตีที่เรียกกันว่า Talons พวกเขาคือที่สุดแห่งที่สุด และทั้งหมดก็รู้อยู่แก่ใจ! แต่แล้ว ร้อยเอก จอร์ช คัมมิ่ง (แซม เชฟพาร์ด) ผู้บังคับบัญชากลับแนะนำให้พวกเขารู้จักกับเครื่องบินลำใหม่ที่ควบคุมด้วย ปัญญาประดิษฐ์ UCAV (Unmanned Combat Aerial Vehicle) พาหนะต่อสู้บนอากาศที่ขับเคลื่อนโดยไร้คนบังคับ หรือชื่อย่อคือ EDI แม้ว่า เบน จะยังลังเลกับการลบเอามนุษย์ออกจากสมการของสงครามในครั้งนี้ แต่ คัมมิ่ง ก็สั่งลูกทีมให้ลงมือปฏิบัติภารกิจจริงครั้งแรกของพวกเขาร่วมกับ EDI ทั้งสามต้องถึงกับอึ้งเมื่อ EDI ได้พิสูจน์ตัวเองว่าเป็นนักบินชั้นยอดและเป้าหมายแรกถูกกำจัดได้สำเร็จ ขณะที่ทั้งหมดกำลังเดินทางกลับสู่ฐานทัพ ยังเรือบรรทุกเครื่องบิน คาร์ล วินสัน เครื่อง EDI ก็ถูกฟ้าผ่า สมองของเจ้าคอมพิวเตอร์จึงได้รับการกระทบกระเทือนและเปลี่ยนแปลงไปในแบบที่ ผู้สร้างมันก็คาดการณ์ไม่ถึง กระนั้น คัมมิ่ง ก็ยังคงประกาศว่าเจ้า EDI พร้อมแล้วสำหรับปฏิบัติการรบกลางอากาศ แม้ว่า เบน และ เฮนรี่ จะมีทีท่าไม่เห็นด้วยก็ตาม
    ภารกิจครั้งถัดมาของพวกเขาคือการปะทะกับกองกำลังอิสระในมณฑลอันห่างไกลของ จีน ปัญหาที่เกิดกับวงจรไฟฟ้าของ EDI มีแต่จะแย่ลงเรื่อยๆ เบน จึงตัดสินใจว่าความเสี่ยงของการโจมตีในครั้งนี้นั้นมีมากเกินกำลังของตัวเขา เฮนรี่ และ คาร่า ที่ความรักระหว่างเขาและเธอกำลังผลิบาน เบน จึงตัดสินใจยกเลิกปฏิบัติการ แต่ EDI กลับฝ่าฝืนคำสั่งและมุ่งหน้าโจมตีต่อมหันตภัยระอุขึ้นเรื่อยๆ เมื่อ EDI ตัดสินใจดำเนินภารกิจลับสุดยอด ที่หากมันทำสำเร็จแล้วโลกก็จะต้องถึงคราววินาศด้วยสงครามนิวเคลียร์ วันล้างโลกนี้มีเพียง เบน เท่านั้นที่จะสามารถหยุดยั้งได้!




    Stealth_(2005)_BluRay720p_By_princo13.mkv.001
    Stealth_(2005)_BluRay720p_By_princo13.mkv.002
    Stealth_(2005)_BluRay720p_By_princo13.mkv.003
    Stealth_(2005)_BluRay720p_By_princo13.mkv.004
    Stealth_(2005)_BluRay720p_By_princo13.mkv.005
    Stealth_(2005)_BluRay720p_By_princo13.mkv.006
    Stealth_(2005)_BluRay720p_By_princo13.mkv.007
    Stealth_(2005)_BluRay720p_By_princo13.mkv.008
    Stealth_(2005)_BluRay720p_By_princo13.mkv.009
    Stealth_(2005)_BluRay720p_By_princo13.mkv.010
    Stealth_(2005)_BluRay720p_By_princo13.mkv.011
    Stealth_(2005)_BluRay720p_By_princo13.mkv.012
    Stealth_(2005)_BluRay720p_By_princo13.mkv.013
    Stealth_(2005)_BluRay720p_By_princo13.mkv.014
    Stealth_(2005)_BluRay720p_By_princo13.mkv.015
    Stealth_(2005)_BluRay720p_By_princo13.mkv.016

    วิธีการรวมไฟล์.001,.002,.003ด้วยโปรแกรม hjsplit
    การตั้งค่าโปรแกรม IDM ให้โหลดไฟล์ 001,002,003

    99.99% NO PART ERROR

    ของท่าน princo13


    _________________





      เวลาขณะนี้ 3rd December 2016, 18:38