K-Concert

ก้าวเข้าสู่เดือนตุลาคม หลายๆสิ่งที่ผ่านเข้ามา ในเวป k-concert
เต็มไปด้วยความทรงจำมากมาย ขอบคุณสมาชิกทุกท่าน
ที่คอยให้กำลังใจ อยู่ตลอดเวลา ....
ทีมงาน ขอขอบคุณ ในทุกๆความหวังดี ทุกๆกำลังใจ
เราสัญญาว่า จะ พัฒนาเวป k-concert บ้านเล็กๆหลังนี้ให้มีความสุขมากที่สุดนะค่ะ


็Happy Today 2011 คร่า

สุดยอดเวปไซด์และศูนย์รวมคอนเสิร์ตระดับโลก


    [Mini-HD] THE ISLAND (2005)BluRay 720p[พากย์ไทย/อังกฤษ][ซับไทย]

    Share

    admin
    ผู้บัญคับบัญชาสูงสุด (ดูแลเว็บ)
    ผู้บัญคับบัญชาสูงสุด (ดูแลเว็บ)

    จำนวนข้อความ : 1009
    พลัีงชีวิต : 41451
    คะแนนความดี [Lv] : 6
    วันที่สมัคร : 02/04/2010
    อายุ : 27
    ที่อยู่ : ฺBanGkok Unversity

    [Mini-HD] THE ISLAND (2005)BluRay 720p[พากย์ไทย/อังกฤษ][ซับไทย]

    ตั้งหัวข้อ  admin on 7th January 2011, 02:24









    __________THE__________
    ISLAND
    FROM THE DIRECTOR OF ARMAGEDDON AND BAD BOYS

    The Island(2005)BluRay 720p By princo13.mkv
    Format : Matroska
    File size : 3.11 GiB
    Duration : 2h 15mn
    Overall bit rate : 3 269 Kbps
    Video #1
    ID : 1
    Format : AVC
    Codec ID : V_MPEG4/ISO/AVC
    Duration : 2h 15mn
    Bit rate : 2 436 Kbps
    Nominal bit rate : 2 500 Kbps
    Width : 1 280 pixels
    Height : 534 pixels
    Display aspect ratio : 2.35:1
    Frame rate : 23.976 fps
    Stream size : 2.31 GiB (74%)
    Audio #2
    ID : 2
    Format : AC-3
    Format/Info : Audio Coding 3
    Codec ID : A_AC3
    Duration : 2h 15mn
    Bit rate : 384 Kbps
    Stream size : 374 MiB (12%)
    Audio #3
    ID : 3
    Format : AC-3
    Format/Info : Audio Coding 3
    Codec ID : A_AC3
    Duration : 2h 15mn
    Bit rate : 384 Kbps
    Stream size : 374 MiB (12%)
    Title : thai By princo13
    Language : Thai
    Text #4
    ID : 4
    Format : VobSub
    Codec ID : S_VOBSUB
    Codec ID/Info : The same subtitle format used on DVDs
    Title : thai By princo13
    Language : Thai
    Text #5
    ID : 5
    Format : UTF-8
    Codec ID : S_TEXT/UTF8
    Codec ID/Info : UTF-8 Plain Text


    ลินคอล์น ซิกซ์-เอ็กโค (ยวน แมคเกรเกอร์) และ จอร์แดน ทู-เดลต้า (สการ์เล็ตต์ โจแฮนสัน) นั้นอยู่ในบรรดาผู้อยู่อาศัยหลายร้อยคน ในที่จำกัดพร้อมสิ่งอำนวยความสะดวก ในช่วงกลางศตวรรษที่ 21 ทั้งสองก็เช่นเดียวกับผู้ร่วมชะตากรรม ที่อาศัยอยู่ในสภาพแวดล้อมที่ถูกควบคุมอย่างระมัดระวัง ทุกสิ่งที่เกี่ยวกับชีวิตประจำวันของพวกเขา ถูกเฝ้าสังเกตุ หากมองผิวเผินแล้ว ดูดีต่อพวกเขาเอง หนทาง - และความหวังเดียวที่พวกเขามีร่วมกัน - คือการได้รับเลือกให้ไป The Island - สถานที่สุดท้ายที่ยังบริสุทธิ์ในโลก จากภัยพิบัติทางระบบนิเวศ ที่มีรายงานว่าทำลายล้างทุกๆ สิ่งที่มีชีวิตทั้งหลายบนโลก - ยกเว้นพวกเขา
    เมื่อถูกรบกวนจากฝันร้ายที่อธิบายไม่ได้ ลินคอล์นหงุดหงิด และมีคำถามต่อสถานที่ที่โดนจำกัดในชีวิตเขาเพิ่มขึ้น แต่เขาไม่ได้ตระเตรียมสำหรับความจริง เมื่อความอยากรู้อยากเห็นที่มากขึ้นของเขา ได้นำไปสู่การเปิดเผยที่น่ากลัวว่า ทุกสิ่งที่เกี่ยวกับการมีชีวิตของเขาเป็นการหลอกลวง The Island คือการหลอกลวงที่แสนโหดร้าย... และที่นั่นซึ่งเขา - จอร์แดน และทุกๆ คนรู้จัก ที่จริงแล้วพวกเขามีประโยชน์ เมื่อตายไปแล้วมากกว่าการมีชีวิต เมื่อเวลาใกล้จะหมดลง ลินคอล์นและจอร์แดนได้หลบหนีอย่างกล้าหาญ สู่โลกภายนอกที่พวกเขาไม่เคยรู้จักเลย ก่อนที่พวกเขาออกมาอยู่ภายนอก และออกมาจากสายตาที่สอดส่องของสถาบัน ความสัมพันธ์ฉันท์เพื่อนอันบริสุทธิ์ที่พวกเขามีให้กัน เริ่มแน่นแฟ้นไปสู่บางอย่างมากขึ้น แต่ด้วยกองกำลังของศูนย์อำนวยการ ที่ตามล่าพวกเขาอย่างไม่ละเว้น ลินคอล์นและจอร์แดนมีภาระกิจที่สำคัญ ...คือ การมีชีวิตอยู่




    The_Island(2005)BluRay_720p_By_princo13.mkv.001
    The_Island(2005)BluRay_720p_By_princo13.mkv.002
    The_Island(2005)BluRay_720p_By_princo13.mkv.003
    The_Island(2005)BluRay_720p_By_princo13.mkv.004
    The_Island(2005)BluRay_720p_By_princo13.mkv.005
    The_Island(2005)BluRay_720p_By_princo13.mkv.006
    The_Island(2005)BluRay_720p_By_princo13.mkv.007
    The_Island(2005)BluRay_720p_By_princo13.mkv.008
    The_Island(2005)BluRay_720p_By_princo13.mkv.009
    The_Island(2005)BluRay_720p_By_princo13.mkv.010
    The_Island(2005)BluRay_720p_By_princo13.mkv.011
    The_Island(2005)BluRay_720p_By_princo13.mkv.012
    The_Island(2005)BluRay_720p_By_princo13.mkv.013
    The_Island(2005)BluRay_720p_By_princo13.mkv.014
    The_Island(2005)BluRay_720p_By_princo13.mkv.015
    The_Island(2005)BluRay_720p_By_princo13.mkv.016

    วิธีการรวมไฟล์.001,.002,.003ด้วยโปรแกรม hjsplit
    การตั้งค่าโปรแกรม IDM ให้โหลดไฟล์ 001,002,003

    99.99% NO PART ERROR

    1.หนังผมทำเอง ทั้งโมดิฟายการหาวัตถุดิบ จะเน้นความคมชัด ไม่ซ้ำใคร
    2.ท่านที่บ่นว่าGUshareโหลดยาก ท่านสามารถโหลดทีละ3พาท และไม่ต้องรอ40นาทีได้
    3.ตรงนี้สำคัญ ก่อนท่านจะโหลดโปรดอ่านที่เม้นโพสสักนิด

    ของท่าน princo13


    _________________





    worrakorn
    ชาวบ้าน
    ชาวบ้าน

    จำนวนข้อความ : 52
    พลัีงชีวิต : 10702
    คะแนนความดี [Lv] : 0
    วันที่สมัคร : 11/02/2011

    Re: [Mini-HD] THE ISLAND (2005)BluRay 720p[พากย์ไทย/อังกฤษ][ซับไทย]

    ตั้งหัวข้อ  worrakorn on 28th February 2011, 23:36

    ขอบคุณมากๆครับ

      เวลาขณะนี้ 11th December 2016, 13:05