K-Concert

ก้าวเข้าสู่เดือนตุลาคม หลายๆสิ่งที่ผ่านเข้ามา ในเวป k-concert
เต็มไปด้วยความทรงจำมากมาย ขอบคุณสมาชิกทุกท่าน
ที่คอยให้กำลังใจ อยู่ตลอดเวลา ....
ทีมงาน ขอขอบคุณ ในทุกๆความหวังดี ทุกๆกำลังใจ
เราสัญญาว่า จะ พัฒนาเวป k-concert บ้านเล็กๆหลังนี้ให้มีความสุขมากที่สุดนะค่ะ


็Happy Today 2011 คร่า

สุดยอดเวปไซด์และศูนย์รวมคอนเสิร์ตระดับโลก


    [Mini-HD]Valentine's.Day(2010)BluRay 720p[พากย์ไทย/อังกฤษ][ซับไทย]

    Share

    admin
    ผู้บัญคับบัญชาสูงสุด (ดูแลเว็บ)
    ผู้บัญคับบัญชาสูงสุด (ดูแลเว็บ)

    จำนวนข้อความ : 1009
    พลัีงชีวิต : 41451
    คะแนนความดี [Lv] : 6
    วันที่สมัคร : 02/04/2010
    อายุ : 27
    ที่อยู่ : ฺBanGkok Unversity

    [Mini-HD]Valentine's.Day(2010)BluRay 720p[พากย์ไทย/อังกฤษ][ซับไทย]

    ตั้งหัวข้อ  admin on 7th January 2011, 02:26



    Valentine's.Day(2010)BluRay 720p By princo13.mkv
    Format : Matroska
    File size : 2.32 GiB
    Duration : 2h 4mn
    Video #1
    ID : 1
    Format : AVC
    Duration : 2h 4mn
    Bit rate : 1 839 Kbps
    Nominal bit rate : 1 889 Kbps
    Frame rate : 23.976 fps
    Stream size : 1.60 GiB (69%)
    Audio #2
    ID : 2
    Format : AC-3
    Format/Info : Audio Coding 3
    Codec ID : A_AC3
    Duration : 2h 4mn
    Bit rate : 384 Kbps
    Stream size : 342 MiB (14%)
    Language : Thai
    Audio #3
    ID : 3
    Format : AC-3
    Format/Info : Audio Coding 3
    Codec ID : A_AC3
    Duration : 2h 4mn
    Bit rate : 384 Kbps
    Stream size : 342 MiB (14%)
    Language : English
    Text #4
    ID : 4
    Format : VobSub
    Codec ID : S_VOBSUB
    Codec ID/Info : The same subtitle format used on DVDs
    Language : Thai
    เรื่องราวความรักหลากหลายคู่ ที่มีทั้งสุขสมหวังและผิดหวัง จากผลงานการกำกับของ แกรี่ มาร์แชล แห่ง ผู้หญิงบานฉ่ำ (Pretty Woman) ที่ปลุกปั้นให้ จูเลีย โรเบิร์ต ดังกระหึ่มโลกมาแล้ว ครั้งนี้เป็นผลงานเรื่องล่าสุดของเขาโดยรวบรวมนักแสดงหญิงชั้นนำแห่งยุค ทั้ง เจสสิก้า บีล, เจสสิก้า อัลบา, แอน แฮทธาเวย์, เจนนิเฟอร์ การ์เนอร์, จูเลีย โรเบิร์ตส, เอ็มม่า โรเบิร์ตส และ ฝ่ายชายได้แก่ แอชตัน คุทเชอร์, แพทริค เด็มพ์ซีย์ และ เจมี่ ฟ็อกซ์ อบอวลความรักพร้อมกันทั่วโลกกุมภาพันธ์นี้




    Valentine's.Day(2010)BluRay_720p_By_princo13.mkv.001
    Valentine's.Day(2010)BluRay_720p_By_princo13.mkv.002
    Valentine's.Day(2010)BluRay_720p_By_princo13.mkv.003
    Valentine's.Day(2010)BluRay_720p_By_princo13.mkv.004
    Valentine's.Day(2010)BluRay_720p_By_princo13.mkv.005
    Valentine's.Day(2010)BluRay_720p_By_princo13.mkv.006
    Valentine's.Day(2010)BluRay_720p_By_princo13.mkv.007
    Valentine's.Day(2010)BluRay_720p_By_princo13.mkv.008
    Valentine's.Day(2010)BluRay_720p_By_princo13.mkv.009
    Valentine's.Day(2010)BluRay_720p_By_princo13.mkv.010
    Valentine's.Day(2010)BluRay_720p_By_princo13.mkv.011
    Valentine's.Day(2010)BluRay_720p_By_princo13.mkv.012

    เครดิตร:มี แต่จำไม่ได้นานแล้ว ขออภัยคับ

    วิธีการรวมไฟล์.001,.002,.003ด้วยโปรแกรม hjsplit
    การตั้งค่าโปรแกรม IDM ให้โหลดไฟล์ 001,002,003

    99.99% NO PART ERROR



    ยกความดีให้ท่าน
    ของท่าน princo13


    _________________





      เวลาขณะนี้ 11th December 2016, 13:02