K-Concert

ก้าวเข้าสู่เดือนตุลาคม หลายๆสิ่งที่ผ่านเข้ามา ในเวป k-concert
เต็มไปด้วยความทรงจำมากมาย ขอบคุณสมาชิกทุกท่าน
ที่คอยให้กำลังใจ อยู่ตลอดเวลา ....
ทีมงาน ขอขอบคุณ ในทุกๆความหวังดี ทุกๆกำลังใจ
เราสัญญาว่า จะ พัฒนาเวป k-concert บ้านเล็กๆหลังนี้ให้มีความสุขมากที่สุดนะค่ะ


็Happy Today 2011 คร่า

สุดยอดเวปไซด์และศูนย์รวมคอนเสิร์ตระดับโลก


    [Mini-HD]Silent.Hill(2006)720p.BluRay.AC3.x264[พากย์ไทย/อังกฤษ][ซับไทย]

    Share

    admin
    ผู้บัญคับบัญชาสูงสุด (ดูแลเว็บ)
    ผู้บัญคับบัญชาสูงสุด (ดูแลเว็บ)

    จำนวนข้อความ : 1009
    พลัีงชีวิต : 41446
    คะแนนความดี [Lv] : 6
    วันที่สมัคร : 02/04/2010
    อายุ : 27
    ที่อยู่ : ฺBanGkok Unversity

    [Mini-HD]Silent.Hill(2006)720p.BluRay.AC3.x264[พากย์ไทย/อังกฤษ][ซับไทย]

    ตั้งหัวข้อ  admin on 7th January 2011, 02:27




    Silent.Hill(2006)720p.BluRay.AC3.x264 By princo13.mkv
    Format : Matroska
    File size : 3.23 GiB
    Duration : 2h 5mn
    Overall bit rate : 3 686 Kbps
    Video #1
    ID : 1
    Format : AVC
    Codec ID : V_MPEG4/ISO/AVC
    Duration : 2h 5mn
    Bit rate : 2 525 Kbps
    Width : 1 280 pixels
    Height : 544 pixels
    Display aspect ratio : 2.35:1
    Frame rate : 23.976 fps
    Stream size : 2.21 GiB (68%)
    Audio #2
    ID : 2
    Format : AC-3
    Format/Info : Audio Coding 3
    Codec ID : A_AC3
    Duration : 2h 5mn
    Bit rate : 448 Kbps
    Stream size : 402 MiB (12%)
    Title : thai By princo13
    Language : Thai
    Audio #3
    ID : 3
    Format : AC-3
    Format/Info : Audio Coding 3
    Codec ID : A_AC3
    Duration : 2h 5mn
    Bit rate : 640 Kbps
    Stream size : 574 MiB (17%)
    Title : eng
    Text #4
    ID : 4
    Format : VobSub
    Codec ID : S_VOBSUB
    Codec ID/Info : The same subtitle format used on DVDs
    Title : thai By princo13
    Language : Thai
    Text #5
    ID : 5
    Format : UTF-8
    Codec ID : S_TEXT/UTF8
    Codec ID/Info : UTF-8 Plain Text
    Title : eng

    เรื่องราวของกลุ่มปีศาจจากนรก ลักพาตัวเด็กหญิงหลงทางเพื่อมาบูชายัญทำพิธีปลุกผี แม่ของเด็กสาวค้นพบเบาะแส จนเดินทางมาถึงยังเมืองร้างนาม SILENT HILLสัมผัสแรกที่เธอย่างกรายสู่ทุกประตูเต็มไปด้วยบรรยากาศแห่งอดีตอันขนพองสยองเกล้า ประวัติของเมืองที่ที่เต็มไปด้วยผู้คนที่เล่นไสย์เวทย์มนต์ดำและถล้ำลึก จนตัวและจิตใจกลายร่างเพี้ยนไปผิดมนุษย์ เธอต้องรวบรวมสติ บุกฝ่า ฝูงอสุรกายกระหายเลือด... ไม่มีทางหนี... ไม่มีอาวุธ... ความหวังเดียวคือการหาทางติดต่อสามี ไม่ใช่เรื่องง่ายเพราะแท้จริงแล้ว สถานที่ตั้งของ SILENT HILL หาได้อยู่บนมิติพิภพที่ผู้คนอาศัยอยู่ไม่!!!!!!



    Silent.Hill(2006)720p.BluRay.AC3.x264_By_princo13.mkv.001
    Silent.Hill(2006)720p.BluRay.AC3.x264_By_princo13.mkv.002
    Silent.Hill(2006)720p.BluRay.AC3.x264_By_princo13.mkv.003
    Silent.Hill(2006)720p.BluRay.AC3.x264_By_princo13.mkv.004
    Silent.Hill(2006)720p.BluRay.AC3.x264_By_princo13.mkv.005
    Silent.Hill(2006)720p.BluRay.AC3.x264_By_princo13.mkv.006
    Silent.Hill(2006)720p.BluRay.AC3.x264_By_princo13.mkv.007
    Silent.Hill(2006)720p.BluRay.AC3.x264_By_princo13.mkv.008
    Silent.Hill(2006)720p.BluRay.AC3.x264_By_princo13.mkv.009
    Silent.Hill(2006)720p.BluRay.AC3.x264_By_princo13.mkv.010
    Silent.Hill(2006)720p.BluRay.AC3.x264_By_princo13.mkv.011
    Silent.Hill(2006)720p.BluRay.AC3.x264_By_princo13.mkv.012
    Silent.Hill(2006)720p.BluRay.AC3.x264_By_princo13.mkv.013
    Silent.Hill(2006)720p.BluRay.AC3.x264_By_princo13.mkv.014
    Silent.Hill(2006)720p.BluRay.AC3.x264_By_princo13.mkv.015
    Silent.Hill(2006)720p.BluRay.AC3.x264_By_princo13.mkv.016
    Silent.Hill(2006)720p.BluRay.AC3.x264_By_princo13.mkv.017

    วิธีการรวมไฟล์.001,.002,.003ด้วยโปรแกรม hjsplit
    การตั้งค่าโปรแกรม IDM ให้โหลดไฟล์ 001,002,003

    99.99% NO PART ERROR

    1.หนังผมทำเอง ทั้งโมดิฟายการหาวัตถุดิบ จะเน้นความคมชัด ไม่ซ้ำใคร
    2.ท่านที่บ่นว่าGUshareโหลดยาก ท่านสามารถโหลดทีละ3พาท และไม่ต้องรอ40นาทีได้
    3.ตรงนี้สำคัญ ก่อนท่านจะโหลดโปรดอ่านที่เม้นโพสสักนิด



    ยกความดีให้ท่าน
    ของท่าน princo13


    _________________





      เวลาขณะนี้ 10th December 2016, 17:44