K-Concert

ก้าวเข้าสู่เดือนตุลาคม หลายๆสิ่งที่ผ่านเข้ามา ในเวป k-concert
เต็มไปด้วยความทรงจำมากมาย ขอบคุณสมาชิกทุกท่าน
ที่คอยให้กำลังใจ อยู่ตลอดเวลา ....
ทีมงาน ขอขอบคุณ ในทุกๆความหวังดี ทุกๆกำลังใจ
เราสัญญาว่า จะ พัฒนาเวป k-concert บ้านเล็กๆหลังนี้ให้มีความสุขมากที่สุดนะค่ะ


็Happy Today 2011 คร่า

สุดยอดเวปไซด์และศูนย์รวมคอนเสิร์ตระดับโลก


    [Mini-HD] Spider Man 1-3 (2002-2007)BluRay 720p[พากย์ไทย/อังกฤษ][ซับไทย]

    Share

    admin
    ผู้บัญคับบัญชาสูงสุด (ดูแลเว็บ)
    ผู้บัญคับบัญชาสูงสุด (ดูแลเว็บ)

    จำนวนข้อความ : 1009
    พลัีงชีวิต : 41451
    คะแนนความดี [Lv] : 6
    วันที่สมัคร : 02/04/2010
    อายุ : 27
    ที่อยู่ : ฺBanGkok Unversity

    [Mini-HD] Spider Man 1-3 (2002-2007)BluRay 720p[พากย์ไทย/อังกฤษ][ซับไทย]

    ตั้งหัวข้อ  admin on 7th January 2011, 02:27

    Spider Man



    General
    Spider-Man (2002)BluRay 720p By princo13.mkv
    Format : Matroska
    File size : 2.99 GiB
    Duration : 2h 1mn
    Overall bit rate : 3 526 Kbps

    Video
    ID : 1
    Format : AVC
    Duration : 2h 1mn
    Bit rate : 2 500 Kbps
    Width : 1 280 pixels
    Height : 694 pixels
    Display aspect ratio : 16:9
    Frame rate : 23.976 fps
    Stream size : 2.06 GiB (69%)

    Audio #1
    ID : 2
    Format : AC-3
    Codec ID : A_AC3
    Duration : 2h 1mn
    Bit rate : 384 Kbps
    Stream size : 333 MiB (11%)
    Title : ac3

    Audio #2
    ID : 3
    Format : AC-3
    Codec ID : A_AC3
    Duration : 2h 1mn
    Bit rate : 640 Kbps
    Channel(s) : 6 channels
    Stream size : 555 MiB (18%)
    Title : thai By princo13
    Language : Thai

    Text #1
    ID : 4
    Format : VobSub
    Codec ID : S_VOBSUB
    Codec ID/Info : The same subtitle format used on DVDs
    Title : thai By princo13
    Language : Thai

    Text #2
    ID : 5
    Format : UTF-8
    Codec ID : S_TEXT/UTF8
    Codec ID/Info : UTF-8 Plain Text
    Title : Eng


    หนุ่มวัยรุ่นกำพร้า ปีเตอร์ พาร์เกอร์ (โทบีย์ แมไกวร์) อาศัยอยู่กับป้าเมย์ (โรสแมรี แฮร์ริส ผู้เคยได้รับการเสนอชื่อเข้าชิงรางวัลออสการ์มาแล้ว) และลุงเบน (เจ้าของรางวัลออสการ์ คลิฟฟ์ รอเบิร์ตสัน) อันเป็นที่รัก ในเมืองควีนส์ นิวยอร์ก ปีเตอร์เป็นเพียงเด็กนักเรียนธรรมดาๆ ซึ่งเรียนไปพร้อมกับทำหน้าที่เป็นช่างภาพอยู่ที่ Daily Bugle ภายใต้การติวเข้มของเจ โจนาห์ เจมส์สัน (เจ เค ซิมมอนส์) เขาแอบหลงรักสาวสวยแมรีเจน วัตสัน (เคิร์สเตน ดันส์ท) อยู่อย่างเงียบๆ และมีเพื่อนคู่หูคือ แฮร์รี ออสบอร์น (เจมส์ ฟรังโก)

    ในการทัศนศึกษา ครั้งหนึ่ง ขณะที่ทั้งปีเตอร์และเพื่อนร่วมชั้นกำลังสาธิตการทดลองทางวิทยาศาสตร์เกี่ยว กับแมงมุมอยู่นั้น ปีเตอร์ก็โดนเจ้าแมงมุมตัวหนึ่งที่ถูกดัดแปลงทางพันธุกรรมกัดเข้า จากนั้นไม่ช้าไม่นาน เขาก็พบว่า ตัวเขามีพลังพิเศษขึ้นมา เขาได้รับพละกำลังและความปราดเปรียวพร้อมด้วยความฉลาดเฉลียว ซึ่งค่อนข้างแน่ใจได้ว่าเป็น "พลังแมงมุม" หลังจากที่ได้รู้ว่ามีพลังเหล่านี้อยู่ในตัว ปีเตอร์ก็ได้ปรากฏตัวในรายการแข่งมวยปล้ำรายการหนึ่งที่ถ่ายทอดออกโทรทัศน์ ด้วย และด้วยพลังของแมงมุมที่อยู่ในตัวนี้เอง ก็ทำให้เขาชนะคู่ต่อสู้อย่างรวดเร็วด้วยเวลาที่ถือเป็นสถิติใหม่เลยทีเดียว ทว่า ผู้จัดการแข่งขันครั้งนี้กลับไม่ยอมจ่ายเงินรางวัลมูลค่าถึง 3,000 ดอลลาร์ให้ โดยกล่าวหาว่าปีเตอร์โกงเพราะชนะเร็วเกินไป จากนั้นอีกไม่นานเช่นกัน ปีเตอร์ก็มีโอกาสจับขโมยที่กำลังยกเค้าออฟฟิศของผู้จัดการแข่งขันคนนั้นได้ แต่ด้วยความแค้น เขาจึงปล่อยขโมยคนนั้นไป แต่แล้ว เพียงไม่นานต่อมา ขโมยคนเดียวกันนั้นเองก็ได้สังหารลุงเบนอันเป็นที่รักของเขา

    ปีเตอร์ สามารถจับกุมขโมยดังกล่าวได้ในร่างของ "ไอ้แมงมุม" แต่ก็เกิดหวั่นไหวว่า เขาจะไม่ได้เป็นวีรบุรุษอย่างที่ฝันไว้ในเร็ววัน และในช่วงที่กำลังสับสนกับตัวเองอยู่นั้น ปีเตอร์ก็หวนนึกถึงคำที่ลุงเบนเคยบอกได้ "พลังอำนาจอันยิ่งใหญ่จะมาพร้อมกับความรับผิดชอบมหาศาลเสมอ" ปีเตอร์จดจำคำของลุงจนขึ้นใจ พร้อมกับตกลงใจว่า จะใช้พลังพิเศษที่มีอยู่ในตัวต่อสู้กับอาชญากรรมทั้งมวล

    ขณะเดียวกัน นอร์แมน ออสบอร์น (วิลเล็ม เดโฟ นักแสดงที่เคยได้รับการเสนอชื่อเข้าชิงรางวัลออสการ์ถึง 2 ครั้ง) พ่อของแฮร์รี ซึ่งเป็นนักธุรกิจชื่อดังที่ฝันถึงความยิ่งใหญ่เหนือใคร ก็กำลังจะมีการเปลี่ยนแปลงในตัวเองเช่นกัน เนื่องจากขณะกำลังทดลองอยู่นั้น ก็เกิดระเบิดใส่ใบหน้าเขา ซึ่งแม้จะเพิ่มพูนความฉลาดเฉลียวและพละกำลังอันแข็งแกร่ง แต่ก็ทำให้เขาเสียสติเช่นกัน ขณะนี้ เขาได้กลายเป็น "ก็อบลินตัวเขียว" ซึ่งกลายเป็นศัตรูตัวฉกาจของ "ไอ้แมงมุม" ไปเสียแล้ว และเป็นตัวประหลาดที่ทำให้ปีเตอร์ พาร์เกอร์ ต้องตั้งปณิธานไว้ว่า เขาจะต้องต่อสู้กับเหล่าร้าย และช่วยเหลือประชาชนที่บริสุทธิ์ให้พ้นภัยให้จงได้




    Spider-Man_(2002)BluRay_720p_By_princo13.mkv.001
    Spider-Man_(2002)BluRay_720p_By_princo13.mkv.002
    Spider-Man_(2002)BluRay_720p_By_princo13.mkv.003
    Spider-Man_(2002)BluRay_720p_By_princo13.mkv.004
    Spider-Man_(2002)BluRay_720p_By_princo13.mkv.005
    Spider-Man_(2002)BluRay_720p_By_princo13.mkv.006
    Spider-Man_(2002)BluRay_720p_By_princo13.mkv.007
    Spider-Man_(2002)BluRay_720p_By_princo13.mkv.008
    Spider-Man_(2002)BluRay_720p_By_princo13.mkv.009
    Spider-Man_(2002)BluRay_720p_By_princo13.mkv.010
    Spider-Man_(2002)BluRay_720p_By_princo13.mkv.011
    Spider-Man_(2002)BluRay_720p_By_princo13.mkv.012
    Spider-Man_(2002)BluRay_720p_By_princo13.mkv.013
    Spider-Man_(2002)BluRay_720p_By_princo13.mkv.014
    Spider-Man_(2002)BluRay_720p_By_princo13.mkv.015
    Spider-Man_(2002)BluRay_720p_By_princo13.mkv.016

    Spider Man 2.1




    General
    Spider Man.2.1(2004)BluRay720p By princo13.mkv
    Format : Matroska
    File size : 3.35 GiB
    Duration : 2h 15mn
    Overall bit rate : 3 526 Kbps

    Video
    ID : 1
    Format : AVC
    Duration : 2h 15mn
    Bit rate : 2 500 Kbps
    Width : 1 280 pixels
    Height : 532 pixels
    Display aspect ratio : 2.40:1
    Frame rate : 23.976 fps
    Stream size : 2.31 GiB (69%)
    Title : Spider man 2.1

    Audio #1
    ID : 2
    Format : AC-3
    Codec ID : A_AC3
    Duration : 2h 15mn
    Bit rate : 384 Kbps
    Stream size : 373 MiB (11%)
    Title : ac3

    Audio #2
    ID : 3
    Format : AC-3
    Codec ID : A_AC3
    Duration : 2h 15mn
    Bit rate : 640 Kbps
    Stream size : 622 MiB (18%)
    Title : thai By princo13
    Language : Thai

    Text #1
    ID : 4
    Format : VobSub
    Codec ID : S_VOBSUB
    Codec ID/Info : The same subtitle format used on DVDs
    Title : thai By princo13
    Language : Thai

    Text #2
    ID : 5
    Format : UTF-8
    Codec ID : S_TEXT/UTF8
    Codec ID/Info : UTF-8 Plain Text
    Title : Eng


    เมื่อปีเตอร์ ปาร์กเกอร์ หรือ สไปเดอร์แมน.(โทบี้ แม็กไกวร์).เดิน ทางมาถึงทางเลือกครั้งสำคัญอันยิ่งใหญ่ ที่เขาจะต้องเป็นผู้ตัดสินใจเลือกทางเดินชีวิตของตนเอง ระหว่างการเป็นซูเปอร์ฮีโร่ที่มีภาระหน้าที่รับผิดชอบในการคอยช่วยเหลือ เพื่อนมนุษย์ หรือกลับมาใช้ชีวิตแบบนักศึกษาหนุ่มธรรมดาทั่วไป ของขวัญและ.คำ สาปจากพลังพิเศษที่เขาได้รับนั้น ทำให้ปีเตอร์ต้องพยายามหาทางรักษาสมดุลย์ของสองตัวตนที่เขาเป็นยิ่งไปกว่า นั้น ความสัมพันธ์ของเขาและ.บุคคล อันเป็นที่รักก็กำลังตกอยู่ในอันตรายอย่างยิ่ง จากการเปิดเผยตัว ไม่ว่าจะเป็น แมรี่ เจน หญิงสาวที่เขาหลงรักมาโดยตลอด หรือป้าเมย์ ญาติเพียงคนเดียวที่หลงเหลืออยู่ แม้แต่มิตรภาพอันแนบแน่นระหว่างปีเตอร์ และ.เพื่อนสนิทอย่าง แฮร์รี่ ออสบอร์น ก็ต้องตกอยู่ในเงามืด เมื่อแฮร์รี่ยิ่งเพิ่มความพยาบาทในตัวสไปเดอร์แมนมากขึ้น หลังจากรู้ว่าพ่อของเขาตายด้วยน้ำมือของไอ้แมงมุม



    Spider_Man.2.1(2004)BluRay720p_By_princo13.mkv.001
    Spider_Man.2.1(2004)BluRay720p_By_princo13.mkv.002
    Spider_Man.2.1(2004)BluRay720p_By_princo13.mkv.003
    Spider_Man.2.1(2004)BluRay720p_By_princo13.mkv.004
    Spider_Man.2.1(2004)BluRay720p_By_princo13.mkv.005
    Spider_Man.2.1(2004)BluRay720p_By_princo13.mkv.006
    Spider_Man.2.1(2004)BluRay720p_By_princo13.mkv.007
    Spider_Man.2.1(2004)BluRay720p_By_princo13.mkv.008
    Spider_Man.2.1(2004)BluRay720p_By_princo13.mkv.009
    Spider_Man.2.1(2004)BluRay720p_By_princo13.mkv.010
    Spider_Man.2.1(2004)BluRay720p_By_princo13.mkv.011
    Spider_Man.2.1(2004)BluRay720p_By_princo13.mkv.012
    Spider_Man.2.1(2004)BluRay720p_By_princo13.mkv.013
    Spider_Man.2.1(2004)BluRay720p_By_princo13.mkv.014
    Spider_Man.2.1(2004)BluRay720p_By_princo13.mkv.015
    Spider_Man.2.1(2004)BluRay720p_By_princo13.mkv.016
    Spider_Man.2.1(2004)BluRay720p_By_princo13.mkv.017
    Spider_Man.2.1(2004)BluRay720p_By_princo13.mkv.018

    Spider Man 3




    General
    Spider Man 3(2007)BluRay720p By princo13.mkv
    Format : Matroska
    File size : 3.05 GiB
    Duration : 2h 19mn
    Overall bit rate : 3 134 Kbps

    Video
    ID : 1
    Format : AVC
    Duration : 2h 19mn
    Bit rate : 2 300 Kbps
    Width : 1 280 pixels
    Height : 534 pixels
    Display aspect ratio : 2.35:1
    Frame rate : 23.976 fps
    Stream size : 2.18 GiB (71%)

    Audio #1
    ID : 2
    Format : AC-3
    Codec ID : A_AC3
    Duration : 2h 19mn
    Bit rate : 384 Kbps
    Stream size : 382 MiB (12%)
    Title : AC-3

    Audio #2
    ID : 3
    Format : AC-3
    Codec ID : A_AC3
    Duration : 2h 19mn
    Bit rate : 448 Kbps
    Stream size : 446 MiB (14%)
    Title : thai By princo13
    Language : Thai

    Text #1
    ID : 4
    Format : VobSub
    Codec ID : S_VOBSUB
    Codec ID/Info : The same subtitle format used on DVDs
    Title : thai By princo13
    Language : Thai

    Text #2
    ID : 5
    Format : UTF-8
    Codec ID : S_TEXT/UTF8
    Codec ID/Info : UTF-8 Plain Text
    Title : Eng


    ในที่สุด ปีเตอร์ ปาร์คเกอร์ (โทบี้ แม็กแกวร์) ก็สามารถประสานให้ชีวิตทั้ง 2 ด้านของเขาเป็นไปอย่างราบรื่น ทั้งความรักที่มีต่อ เอ็ม.เจ (คริสเต็น ดันส์) และภาระกิจพิทักษ์ความสงบแก่มวลมนุษย์ในฐานะซุปเปอร์ฮีโร่ “สไปเดอร์แมน”...แต่แล้วพายุครั้งใหม่ก็เริ่มก่อตัวขึ้นอีกครั้ง ... เมื่อชุดฟอร์มสไปเดอร์แมนของเขา กลับกลายเป็นสีดำทมึน และทวีพลังรุนแรงยิ่งขึ้น การเปลี่ยนแปลงครั้งนี้ส่งผลให้ความโกรธแค้นที่ฝังลึก ระเบิดออกกลายเป็นพลังด้านมืดมหาศาลซึ่งปีเตอร์ ไม่อาจควบคุมได้ ปีเตอร์กลายเป็นคนแข็งกร้าว มั่นใจเกินไป และเพิกเฉยต่อคนที่รักเขามากที่สุด ระหว่างที่เขาต้องเลือกระหว่างพลังอำนาจมหาศาล กับการเป็นวีรบุรุษผู้เคยเป็นที่รักในแบบเดิม ศัตรูที่น่ากลัวที่สุดก็อุบัติขึ้น! แซนแมน (โทมัส ฮาเดน เชิร์ช) และ อสรพิษวีนอม (โทเฟอร์ เกรส) รวมพลังแก้แค้นอันยิ่งใหญ่หวังจะกำจัดปีเตอร์ และทุกคนที่ปีเตอร์รักให้ราบคาบ ! ..ภารกิจครั้งใหม่ของสไปเดอร์ครั้งนี้ จึงเข้มข้นยิ่งขึ้น ทั้งการต่อสู้พิชิตอำนาจมืดในตัวเอง กับการรับมือ 2 วายร้ายตัวฉกาจที่มีพลังอำนาจสูงเกินกว่าที่วีรบุรุษจะรับมือไหว



    Spider_Man_3(2007)BluRay720p_By_princo13.mkv.001
    Spider_Man_3(2007)BluRay720p_By_princo13.mkv.002
    Spider_Man_3(2007)BluRay720p_By_princo13.mkv.003
    Spider_Man_3(2007)BluRay720p_By_princo13.mkv.004
    Spider_Man_3(2007)BluRay720p_By_princo13.mkv.005
    Spider_Man_3(2007)BluRay720p_By_princo13.mkv.006
    Spider_Man_3(2007)BluRay720p_By_princo13.mkv.007
    Spider_Man_3(2007)BluRay720p_By_princo13.mkv.008
    Spider_Man_3(2007)BluRay720p_By_princo13.mkv.009
    Spider_Man_3(2007)BluRay720p_By_princo13.mkv.010
    Spider_Man_3(2007)BluRay720p_By_princo13.mkv.011
    Spider_Man_3(2007)BluRay720p_By_princo13.mkv.012
    Spider_Man_3(2007)BluRay720p_By_princo13.mkv.013
    Spider_Man_3(2007)BluRay720p_By_princo13.mkv.014
    Spider_Man_3(2007)BluRay720p_By_princo13.mkv.015
    Spider_Man_3(2007)BluRay720p_By_princo13.mkv.016

    วิธีการรวมไฟล์.001,.002,.003ด้วยโปรแกรม hjsplit
    การตั้งค่าโปรแกรม IDM ให้โหลดไฟล์ 001,002,003

    99.99% NO PART ERROR

    1.หนังผมทำเอง ทั้งโมดิฟายการหาวัตถุดิบ จะเน้นความคมชัด ไม่ซ้ำใคร
    2.ท่านที่บ่นว่าGUshareโหลดยาก ท่านสามารถโหลดทีละ3พาท และไม่ต้องรอ40นาทีได้
    3.ตรงนี้สำคัญ สำหรับท่านที่โหลดผ่าน ไม่มีปัญหา/มีปัญหา/ข้อสงสัย ช่วยโพสบอกคับ จะได้ทำการแก้ไขต่อไป



    ยกความดีให้ท่าน
    ของท่าน princo13


    _________________





      เวลาขณะนี้ 11th December 2016, 13:01