K-Concert

ก้าวเข้าสู่เดือนตุลาคม หลายๆสิ่งที่ผ่านเข้ามา ในเวป k-concert
เต็มไปด้วยความทรงจำมากมาย ขอบคุณสมาชิกทุกท่าน
ที่คอยให้กำลังใจ อยู่ตลอดเวลา ....
ทีมงาน ขอขอบคุณ ในทุกๆความหวังดี ทุกๆกำลังใจ
เราสัญญาว่า จะ พัฒนาเวป k-concert บ้านเล็กๆหลังนี้ให้มีความสุขมากที่สุดนะค่ะ


็Happy Today 2011 คร่า

สุดยอดเวปไซด์และศูนย์รวมคอนเสิร์ตระดับโลก


    [ฝรั่ง]-[Mini-HD] Forest Gump - อัจฉริยะปัญญานิ่ม [1994][720i/p][Hi-Def Rip From Master]-[พากย์ไทย]

    Share

    admin
    ผู้บัญคับบัญชาสูงสุด (ดูแลเว็บ)
    ผู้บัญคับบัญชาสูงสุด (ดูแลเว็บ)

    จำนวนข้อความ : 1009
    พลัีงชีวิต : 41411
    คะแนนความดี [Lv] : 6
    วันที่สมัคร : 02/04/2010
    อายุ : 27
    ที่อยู่ : ฺBanGkok Unversity

    [ฝรั่ง]-[Mini-HD] Forest Gump - อัจฉริยะปัญญานิ่ม [1994][720i/p][Hi-Def Rip From Master]-[พากย์ไทย]

    ตั้งหัวข้อ  admin on 4th October 2010, 13:08

    [ฝรั่ง]-[Mini-HD] Forest Gump - อัจฉริยะปัญญานิ่ม [1994][720i/p][Hi-Def Rip From Master]-[พากย์ไทย]










    Forrest.Gump.1994
    เรื่องย่อ

    ในช่วงสามทศวรรษแห่งความโกลาหล ฟอร์เรสท์ (ทอม แฮงค์) ดำเนิน ชีวิตผ่านกระแสช่วงต่างๆที่ผันเขาจากคนร่างกายพิการไปเป็นดาราอเมริกัน ฟุตบอล จากวีรบุรุษในสงครามเวียดนามเป็นเศรษฐีธุรกิจเรือกุ้ง จากเกียรติทำเนียบขาวไปสู่อ้อมกอดของผู้ที่เขามีใจรักจริง ฟอร์เรสท์คือลักษณะรูปธรรมแห่งยุค คือความไร้เดียงสาในดินแดนอเมริกา จิตใจของเขาตระหนักต่อสิ่งที่ไอคิวอันจำกัดของตัวเองไม่อำนวย ขอบข่ายศิลธรรมของเขาไม่เคยคลอนแคลน ชัยชนะทั้งหลายของเขากลายเป็นแรงบันดาลใจแก่เราทุกคน

    ...................................................................

    General
    Complete name : F:หนังรอupPercy.Jackson.The.Lightning.Thief.2010 vs Forrest Gump 1994Forrest.Gump.1994.mkv
    Format : Matroska
    File size : 3.62 GiB
    Duration : 2h 22mn
    Overall bit rate : 3 647 Kbps
    Encoded date : UTC 2010-06-20 08:43:46
    Writing application : mkvmerge v2.4.0 ( Fumbling Towards Ecstasy ) built on Oct 11 2008 20:13:15
    Writing library : libebml v0.7.7 + libmatroska v0.8.1

    Video
    ID : 1
    Format : AVC
    Format/Info : Advanced Video Codec
    Format profile : High@L4.0
    Format settings , CABAC : Yes
    Format settings , ReFrames : 8 frames
    Muxing mode : Container profile=Unknown@4.0
    Codec ID : V_MPEG4/ISO/AVC
    Duration : 2h 22mn
    Bit rate : 3 004 Kbps
    Width : 1 280 pixels
    Height : 720 pixels
    Display aspect ratio : 16:9
    Frame rate : 23.976 fps
    Color space : YUV
    Chroma subsampling : 4:2:0
    Bit depth : 8 bits
    Scan type : Progressive
    Bits/(Pixel*Frame) : 0.136
    Stream size : 2.91 GiB (80%)
    Writing library : x264 core 79 r1342kMod e8501ef
    Encoding settings : cabac=1 / ref=8 / deblock=1:-1:-1 / analyse=0x3:0x113 / me=dia / subme=10 / psy=1 / psy_rd=1.0:0.1 / mixed_ref=0 / me_range=16 / chroma_me=1 / trellis=2 / 8x8dct=1 / cqm=0 / deadzone=21 , 11 / chroma_qp_offset=-3 / threads=3 / nr=0 / decimate=1 / mbaff=0 / constrained_intra=0 / bframes=1 / b_pyramid=0 / b_adapt=0 / b_bias=0 / direct=0 / wpredb=1 / wpredp=2 / keyint=250 / keyint_min=25 / scenecut=40 / rc_lookahead=40 / rc=2pass / mbtree=1 / bitrate=3004 / ratetol=1.0 / qcomp=0.60 / qpmin=1 / qpmax=51 / qpstep=4 / cplxblur=20.0 / qblur=0.5 / ip_ratio=1.40 / aq=1:1.00

    Audio
    ID : 2
    Format : AC-3
    Format/Info : Audio Coding 3
    Mode extension : CM (complete main)
    Codec ID : A_AC3
    Duration : 2h 22mn
    Bit rate mode : Constant
    Bit rate : 640 Kbps
    Channel(s) : 2 channels
    Channel positions : Front: L R
    Sampling rate : 48.0 KHz
    Stream size : 651 MiB (18%)

    - Forrest Gump มีแต่เสียงไทย เนื่องจากต้นฉบับลบไปนานแล้วต้องขออภัย
    -หากผิดพลาดประการใดต้องขออภัยไว้ ณ ที่นี้ด้วยนะครับ
    -ขอให้มีความสูขกับการชมภาพยนต์นะครับ
    -เป็นสาธารณะเช่นเดิม



    Forrest Gump ( 1994 )

    * ข้อมูลหนัง

    Forrest Gump ฟอร์เรสท์ กัมพ์ อัจฉริยะปัญญานิ่ม
    ชื่ออื่นๆ :
    ชื่อไทย : ฟอร์เรสท์ กัมพ์ อัจฉริยะปัญญานิ่ม
    ผู้กำกับ : โรเบิร์ต เซเมคคิส
    ผู้แต่ง : อีริค ร็อธ
    วันเข้าฉาย : 00/00/1994
    ประเภท : Comedy, Drama, Romance
    ความยาว : 142 นาที
    เรท : เรท PG-13
    สถานที่ถ่ายทำ :
    ภาษา : อังกฤษ

    เนื้อเรื่องย่อ
    "Lift is like a box of chocolates... You never know what you're gonna get"
    คำพูดข้างต้นจาก Forrest Gump กลายเป็นอมตะทันทีเช่นเดียวกับตัวภาพยนตร์และเป็นแรงบันดาลใจแก่ผู้คนนับล้านทั่วโลก
    ในช่วงสามทศวรรษแห่งความโกลาหล ฟอร์เรสท์ (ทอม แฮงค์) ดำเนิน ชีวิตผ่านกระแสช่วงต่างๆที่ผันเขาจากคนร่างกายพิการไปเป็นดาราอเมริกัน ฟุตบอล จากวีรบุรุษในสงครามเวียดนามเป็นเศรษฐีธุรกิจเรือกุ้ง จากเกียรติทำเนียบขาวไปสู่อ้อมกอดของผู้ที่เขามีใจรักจริง ฟอร์เรสท์คือลักษณะรูปธรรมแห่งยุค คือความไร้เดียงสาในดินแดนอเมริกา จิตใจของเขาตระหนักต่อสิ่งที่ไอคิวอันจำกัดของตัวเองไม่อำนวย ขอบข่ายศิลธรรมของเขาไม่เคยคลอนแคลน ชัยชนะทั้งหลายของเขากลายเป็นแรงบันดาลใจแก่เราทุกคน"


    ค่ายหนัง
    1. Paramount Pictures




    นักแสดง
    1. ทอม แฮงค์ส ทอม แฮงค์ส ...ฟอเรสต์ กัมพ์
    2. แกรี่ ซีนีส แกรี่ ซีนีส ...แดน เทย์เลอร์
    3. มิเคลติ วิลเลี่ยมวัน มิเคลติ วิลเลี่ยมวัน ...เบนจามิน
    4. โรบิน ไรท์ เพ็นน์ โรบิน ไรท์ เพ็นน์ ...เจนนี่

    ทีมงาน
    1. อลัน ซิลเวสทรี อลัน ซิลเวสทรี (ทำหน้าที่ ดนตรีประกอบ)
    2. ริค คาร์เตอร์ ริค คาร์เตอร์ (ทำหน้าที่ ออกแบบงานสร้าง)




















    teclub2006
    ชาวบ้าน
    ชาวบ้าน

    จำนวนข้อความ : 3
    พลัีงชีวิต : 11363
    คะแนนความดี [Lv] : 0
    วันที่สมัคร : 14/09/2010

    Re: [ฝรั่ง]-[Mini-HD] Forest Gump - อัจฉริยะปัญญานิ่ม [1994][720i/p][Hi-Def Rip From Master]-[พากย์ไทย]

    ตั้งหัวข้อ  teclub2006 on 1st November 2010, 09:42

    thank ja

    chuen
    ชาวบ้าน
    ชาวบ้าน

    จำนวนข้อความ : 4
    พลัีงชีวิต : 11120
    คะแนนความดี [Lv] : 0
    วันที่สมัคร : 02/11/2010

    Re: [ฝรั่ง]-[Mini-HD] Forest Gump - อัจฉริยะปัญญานิ่ม [1994][720i/p][Hi-Def Rip From Master]-[พากย์ไทย]

    ตั้งหัวข้อ  chuen on 3rd November 2010, 08:04

    ขอบคุณคร้าบ

    gertencuzd
    ชาวบ้าน
    ชาวบ้าน

    จำนวนข้อความ : 6
    พลัีงชีวิต : 11083
    คะแนนความดี [Lv] : 0
    วันที่สมัคร : 10/11/2010

    Re: [ฝรั่ง]-[Mini-HD] Forest Gump - อัจฉริยะปัญญานิ่ม [1994][720i/p][Hi-Def Rip From Master]-[พากย์ไทย]

    ตั้งหัวข้อ  gertencuzd on 11th November 2010, 21:27

    ขอบคุณงับ

    redmushroom
    ชาวบ้าน
    ชาวบ้าน

    จำนวนข้อความ : 3
    พลัีงชีวิต : 11068
    คะแนนความดี [Lv] : 0
    วันที่สมัคร : 13/11/2010

    Re: [ฝรั่ง]-[Mini-HD] Forest Gump - อัจฉริยะปัญญานิ่ม [1994][720i/p][Hi-Def Rip From Master]-[พากย์ไทย]

    ตั้งหัวข้อ  redmushroom on 13th November 2010, 01:10

    rabbit

    RuRiA
    ชาวบ้าน
    ชาวบ้าน

    จำนวนข้อความ : 2
    พลัีงชีวิต : 11147
    คะแนนความดี [Lv] : 0
    วันที่สมัคร : 27/10/2010

    Re: [ฝรั่ง]-[Mini-HD] Forest Gump - อัจฉริยะปัญญานิ่ม [1994][720i/p][Hi-Def Rip From Master]-[พากย์ไทย]

    ตั้งหัวข้อ  RuRiA on 13th November 2010, 16:50

    ชอบเรื่องนี้มากๆเลย ขอบคุณมากๆนะคะ

    sexmanramnot
    ชาวบ้าน
    ชาวบ้าน

    จำนวนข้อความ : 1
    พลัีงชีวิต : 10391
    คะแนนความดี [Lv] : 0
    วันที่สมัคร : 28/03/2011

    Re: [ฝรั่ง]-[Mini-HD] Forest Gump - อัจฉริยะปัญญานิ่ม [1994][720i/p][Hi-Def Rip From Master]-[พากย์ไทย]

    ตั้งหัวข้อ  sexmanramnot on 28th March 2011, 01:03

    ขอบคุนครับ

    porthx
    ชาวบ้าน
    ชาวบ้าน

    จำนวนข้อความ : 1
    พลัีงชีวิต : 10321
    คะแนนความดี [Lv] : 0
    วันที่สมัคร : 10/04/2011

    Re: [ฝรั่ง]-[Mini-HD] Forest Gump - อัจฉริยะปัญญานิ่ม [1994][720i/p][Hi-Def Rip From Master]-[พากย์ไทย]

    ตั้งหัวข้อ  porthx on 10th April 2011, 23:37

    ดีคับ

    sg3000
    ชาวบ้าน
    ชาวบ้าน

    จำนวนข้อความ : 1
    พลัีงชีวิต : 10191
    คะแนนความดี [Lv] : 0
    วันที่สมัคร : 06/05/2011

    Re: [ฝรั่ง]-[Mini-HD] Forest Gump - อัจฉริยะปัญญานิ่ม [1994][720i/p][Hi-Def Rip From Master]-[พากย์ไทย]

    ตั้งหัวข้อ  sg3000 on 6th May 2011, 12:06

    ขอบใจครับ

    soda_man
    ชาวบ้าน
    ชาวบ้าน

    จำนวนข้อความ : 1
    พลัีงชีวิต : 9976
    คะแนนความดี [Lv] : 0
    วันที่สมัคร : 18/06/2011

    Re: [ฝรั่ง]-[Mini-HD] Forest Gump - อัจฉริยะปัญญานิ่ม [1994][720i/p][Hi-Def Rip From Master]-[พากย์ไทย]

    ตั้งหัวข้อ  soda_man on 18th June 2011, 20:08

    ขอบคุนครับ Very Happy

    tumhling
    ชาวบ้าน
    ชาวบ้าน

    จำนวนข้อความ : 4
    พลัีงชีวิต : 9944
    คะแนนความดี [Lv] : 0
    วันที่สมัคร : 26/06/2011

    Re: [ฝรั่ง]-[Mini-HD] Forest Gump - อัจฉริยะปัญญานิ่ม [1994][720i/p][Hi-Def Rip From Master]-[พากย์ไทย]

    ตั้งหัวข้อ  tumhling on 26th June 2011, 01:09

    thank you

    era4416
    ชาวบ้าน
    ชาวบ้าน

    จำนวนข้อความ : 1
    พลัีงชีวิต : 9916
    คะแนนความดี [Lv] : 0
    วันที่สมัคร : 30/06/2011

    Re: [ฝรั่ง]-[Mini-HD] Forest Gump - อัจฉริยะปัญญานิ่ม [1994][720i/p][Hi-Def Rip From Master]-[พากย์ไทย]

    ตั้งหัวข้อ  era4416 on 30th June 2011, 12:28

    ขอบคุณมาก สำหรับหนังดีๆที่น่าสะสม

    asakurayo2
    ชาวบ้าน
    ชาวบ้าน

    จำนวนข้อความ : 1
    พลัีงชีวิต : 9901
    คะแนนความดี [Lv] : 0
    วันที่สมัคร : 03/07/2011

    Re: [ฝรั่ง]-[Mini-HD] Forest Gump - อัจฉริยะปัญญานิ่ม [1994][720i/p][Hi-Def Rip From Master]-[พากย์ไทย]

    ตั้งหัวข้อ  asakurayo2 on 3rd July 2011, 11:25

    ขอบคุณมากคร้าบบบ

    kietipon
    ชาวบ้าน
    ชาวบ้าน

    จำนวนข้อความ : 1
    พลัีงชีวิต : 9856
    คะแนนความดี [Lv] : 0
    วันที่สมัคร : 12/07/2011

    ของคุณครับ

    ตั้งหัวข้อ  kietipon on 12th July 2011, 09:54

    admin พิมพ์ว่า:[ฝรั่ง]-[Mini-HD] Forest Gump - อัจฉริยะปัญญานิ่ม [1994][720i/p][Hi-Def Rip From Master]-[พากย์ไทย]










    Forrest.Gump.1994
    เรื่องย่อ

    ในช่วงสามทศวรรษแห่งความโกลาหล ฟอร์เรสท์ (ทอม แฮงค์) ดำเนิน ชีวิตผ่านกระแสช่วงต่างๆที่ผันเขาจากคนร่างกายพิการไปเป็นดาราอเมริกัน ฟุตบอล จากวีรบุรุษในสงครามเวียดนามเป็นเศรษฐีธุรกิจเรือกุ้ง จากเกียรติทำเนียบขาวไปสู่อ้อมกอดของผู้ที่เขามีใจรักจริง ฟอร์เรสท์คือลักษณะรูปธรรมแห่งยุค คือความไร้เดียงสาในดินแดนอเมริกา จิตใจของเขาตระหนักต่อสิ่งที่ไอคิวอันจำกัดของตัวเองไม่อำนวย ขอบข่ายศิลธรรมของเขาไม่เคยคลอนแคลน ชัยชนะทั้งหลายของเขากลายเป็นแรงบันดาลใจแก่เราทุกคน

    ...................................................................

    General
    Complete name : F:หนังรอupPercy.Jackson.The.Lightning.Thief.2010 vs Forrest Gump 1994Forrest.Gump.1994.mkv
    Format : Matroska
    File size : 3.62 GiB
    Duration : 2h 22mn
    Overall bit rate : 3 647 Kbps
    Encoded date : UTC 2010-06-20 08:43:46
    Writing application : mkvmerge v2.4.0 ( Fumbling Towards Ecstasy ) built on Oct 11 2008 20:13:15
    Writing library : libebml v0.7.7 + libmatroska v0.8.1

    Video
    ID : 1
    Format : AVC
    Format/Info : Advanced Video Codec
    Format profile : High@L4.0
    Format settings , CABAC : Yes
    Format settings , ReFrames : 8 frames
    Muxing mode : Container profile=Unknown@4.0
    Codec ID : V_MPEG4/ISO/AVC
    Duration : 2h 22mn
    Bit rate : 3 004 Kbps
    Width : 1 280 pixels
    Height : 720 pixels
    Display aspect ratio : 16:9
    Frame rate : 23.976 fps
    Color space : YUV
    Chroma subsampling : 4:2:0
    Bit depth : 8 bits
    Scan type : Progressive
    Bits/(Pixel*Frame) : 0.136
    Stream size : 2.91 GiB (80%)
    Writing library : x264 core 79 r1342kMod e8501ef
    Encoding settings : cabac=1 / ref=8 / deblock=1:-1:-1 / analyse=0x3:0x113 / me=dia / subme=10 / psy=1 / psy_rd=1.0:0.1 / mixed_ref=0 / me_range=16 / chroma_me=1 / trellis=2 / 8x8dct=1 / cqm=0 / deadzone=21 , 11 / chroma_qp_offset=-3 / threads=3 / nr=0 / decimate=1 / mbaff=0 / constrained_intra=0 / bframes=1 / b_pyramid=0 / b_adapt=0 / b_bias=0 / direct=0 / wpredb=1 / wpredp=2 / keyint=250 / keyint_min=25 / scenecut=40 / rc_lookahead=40 / rc=2pass / mbtree=1 / bitrate=3004 / ratetol=1.0 / qcomp=0.60 / qpmin=1 / qpmax=51 / qpstep=4 / cplxblur=20.0 / qblur=0.5 / ip_ratio=1.40 / aq=1:1.00

    Audio
    ID : 2
    Format : AC-3
    Format/Info : Audio Coding 3
    Mode extension : CM (complete main)
    Codec ID : A_AC3
    Duration : 2h 22mn
    Bit rate mode : Constant
    Bit rate : 640 Kbps
    Channel(s) : 2 channels
    Channel positions : Front: L R
    Sampling rate : 48.0 KHz
    Stream size : 651 MiB (18%)

    - Forrest Gump มีแต่เสียงไทย เนื่องจากต้นฉบับลบไปนานแล้วต้องขออภัย
    -หากผิดพลาดประการใดต้องขออภัยไว้ ณ ที่นี้ด้วยนะครับ
    -ขอให้มีความสูขกับการชมภาพยนต์นะครับ
    -เป็นสาธารณะเช่นเดิม



    Forrest Gump ( 1994 )

    * ข้อมูลหนัง

    Forrest Gump ฟอร์เรสท์ กัมพ์ อัจฉริยะปัญญานิ่ม
    ชื่ออื่นๆ :
    ชื่อไทย : ฟอร์เรสท์ กัมพ์ อัจฉริยะปัญญานิ่ม
    ผู้กำกับ : โรเบิร์ต เซเมคคิส
    ผู้แต่ง : อีริค ร็อธ
    วันเข้าฉาย : 00/00/1994
    ประเภท : Comedy, Drama, Romance
    ความยาว : 142 นาที
    เรท : เรท PG-13
    สถานที่ถ่ายทำ :
    ภาษา : อังกฤษ

    เนื้อเรื่องย่อ
    "Lift is like a box of chocolates... You never know what you're gonna get"
    คำพูดข้างต้นจาก Forrest Gump กลายเป็นอมตะทันทีเช่นเดียวกับตัวภาพยนตร์และเป็นแรงบันดาลใจแก่ผู้คนนับล้านทั่วโลก
    ในช่วงสามทศวรรษแห่งความโกลาหล ฟอร์เรสท์ (ทอม แฮงค์) ดำเนิน ชีวิตผ่านกระแสช่วงต่างๆที่ผันเขาจากคนร่างกายพิการไปเป็นดาราอเมริกัน ฟุตบอล จากวีรบุรุษในสงครามเวียดนามเป็นเศรษฐีธุรกิจเรือกุ้ง จากเกียรติทำเนียบขาวไปสู่อ้อมกอดของผู้ที่เขามีใจรักจริง ฟอร์เรสท์คือลักษณะรูปธรรมแห่งยุค คือความไร้เดียงสาในดินแดนอเมริกา จิตใจของเขาตระหนักต่อสิ่งที่ไอคิวอันจำกัดของตัวเองไม่อำนวย ขอบข่ายศิลธรรมของเขาไม่เคยคลอนแคลน ชัยชนะทั้งหลายของเขากลายเป็นแรงบันดาลใจแก่เราทุกคน"


    ค่ายหนัง
    1. Paramount Pictures




    นักแสดง
    1. ทอม แฮงค์ส ทอม แฮงค์ส ...ฟอเรสต์ กัมพ์
    2. แกรี่ ซีนีส แกรี่ ซีนีส ...แดน เทย์เลอร์
    3. มิเคลติ วิลเลี่ยมวัน มิเคลติ วิลเลี่ยมวัน ...เบนจามิน
    4. โรบิน ไรท์ เพ็นน์ โรบิน ไรท์ เพ็นน์ ...เจนนี่

    ทีมงาน
    1. อลัน ซิลเวสทรี อลัน ซิลเวสทรี (ทำหน้าที่ ดนตรีประกอบ)
    2. ริค คาร์เตอร์ ริค คาร์เตอร์ (ทำหน้าที่ ออกแบบงานสร้าง)



















    Surprised Surprised Surprised Surprised Surprised Surprised Surprised Surprised Surprised Surprised

    gonzaloball
    ชาวบ้าน
    ชาวบ้าน

    จำนวนข้อความ : 1
    พลัีงชีวิต : 9736
    คะแนนความดี [Lv] : 0
    วันที่สมัคร : 05/08/2011

    Re: [ฝรั่ง]-[Mini-HD] Forest Gump - อัจฉริยะปัญญานิ่ม [1994][720i/p][Hi-Def Rip From Master]-[พากย์ไทย]

    ตั้งหัวข้อ  gonzaloball on 5th August 2011, 21:04

    ขอบคุณครับ

    pongsak_y
    ชาวบ้าน
    ชาวบ้าน

    จำนวนข้อความ : 1
    พลัีงชีวิต : 9456
    คะแนนความดี [Lv] : 0
    วันที่สมัคร : 30/09/2011

    Re: [ฝรั่ง]-[Mini-HD] Forest Gump - อัจฉริยะปัญญานิ่ม [1994][720i/p][Hi-Def Rip From Master]-[พากย์ไทย]

    ตั้งหัวข้อ  pongsak_y on 30th September 2011, 19:11

    thank you affraid affraid afro lol! Sleep

      เวลาขณะนี้ 3rd December 2016, 18:38